vcs

  • Status Closed
  • Percent Complete
    100%
  • Task Type TO-DO
  • Category General
  • Assigned To
    Toni Corvera
  • Operating System All/Any
  • Severity Low
  • Priority Low
  • Reported Version 1.13.2
  • Due in Version 1.13.3
  • Due Date Undecided
  • Votes
  • Private
Attached to Project: vcs
Opened by Toni Corvera - 19.08.2014
Last edited by Toni Corvera - 23.05.2017

FS#247 - Add codec identification for H.265/HEVC

ffmpeg: hevc

i.e.:
Stream #0:0[0x12d]: Video: hevc (Main) (HEVC / 0×43564548), yuv420p(tv), 3840×2160, 150 tbr, 90k tbn, 90k tbc Stream #0:0: Video: hevc, yuv420p(tv), 3840×2160, 25 fps, 25 tbr, 1200k tbn, 25 tbc

Samples: http://www.elecard.com/en/download/videos.html

The task depends upon
ID Project Summary Priority Severity Progress
248 vcs  FS#248 - Unsupported format gives errors  Low High
100%
The task blocks this from closing
ID Project Summary Priority Severity Progress
250 vcs  FS#250 - Release 1.13.3  Very Low Low
100%
Closed by  Toni Corvera
23.05.2017 17:20
Reason for closing:  Implemented

Loading...

Available keyboard shortcuts

Tasklist

Task Details

Task Editing