BTS :: OutlyerNet :: Tue, 26 Nov 2019 19:47:34 +0000 BTS :: OutlyerNet :: vcs: Recently closed tasks http://b.outlyer.net/ FS#366: Release 1.13.4 Toni Corvera Wed, 27 Feb 2019 00:47:12 +0000 This is a meta-item depending on bugs to be fixed in the 1.13.4 release.

1.13.4 is a minor bugfix release for bugs found while development for 1.14 and 2.0 is stalled.

Previous:  FS#152   FS#218   FS#224   FS#250 
Next: FS#153

]]>
http://b.outlyer.net/task/366 http://b.outlyer.net/task/366
FS#364: Evasion offsets aren't walked over in array Toni Corvera Fri, 04 Jan 2019 14:52:37 +0000 Submitted by Davide Cavestro

The array EVASION_ALTERNATIVES isn’t looped over correctly. Correction:

-		for delta in $EVASION_ALTERNATIVES ; do
+		for delta in ${EVASION_ALTERNATIVES[*]} ; do
]]>
http://b.outlyer.net/task/364 http://b.outlyer.net/task/364
FS#365: File sizes are rounded Toni Corvera Wed, 27 Feb 2019 00:30:26 +0000 Reported by remlap

File sizes are displayed as 3.00GiB instead of 3.54GiB

]]>
http://b.outlyer.net/task/365 http://b.outlyer.net/task/365
FS#373: Number of columns is ignored Toni Corvera Mon, 25 Nov 2019 11:19:38 +0000 First reported on BSD and Debian 10 (reproducible), apparently tied to some updated tool

]]>
http://b.outlyer.net/task/373 http://b.outlyer.net/task/373
FS#250: Release 1.13.3 Toni Corvera Tue, 19 Aug 2014 22:19:56 +0000 No need for description

]]>
http://b.outlyer.net/task/250 http://b.outlyer.net/task/250
FS#314: Patch for approximate size calculation Toni Corvera Thu, 28 Apr 2016 18:29:25 +0000 Submitted by someone desiring no credit.

Here’s a patch against 1.13.2 for mistaken approximate size calculation.

Self-notes about the patch:

  • More accurate rounding → Discarded. I went for rounding by excess
  • Leading 0 in fractionary units was not present in the original → BUG
    Sample: Samsung HD sample, 1080pto720p version
]]>
http://b.outlyer.net/task/314 http://b.outlyer.net/task/314
FS#323: Codec information is misaligned/cropped Toni Corvera Tue, 16 May 2017 19:07:47 +0000 Originally reported by Markus and Wade

The codec information box gets cropped with current versions of ImageMagick.

]]>
http://b.outlyer.net/task/323 http://b.outlyer.net/task/323
FS#311: Allow disabling coloured output altogether Toni Corvera Mon, 28 Mar 2016 11:00:06 +0000 Reported by DanC

https://outlyer.net/2014-05-18:vcs-1_13_2-released/comment-page-1/#comment-20390:

A great utilty... I’ve been using this for a couple of years now (it runs every night as a cron job).
I’ve been looking at cleaning up the output that cron captures from each of its commands and stores as a system email.
I’ve enabled the -Wc option to prevent coloured output. Mostly this works except near the start of the script when it says:
Settings from /home/danc/.vcs/vcs.conf:
bg_heading
This is still shown in green. Bug?

Currently the colour only stops after the option is found.

]]>
http://b.outlyer.net/task/311 http://b.outlyer.net/task/311
FS#247: Add codec identification for H.265/HEVC Toni Corvera Tue, 19 Aug 2014 12:05:34 +0000 ffmpeg: hevc

i.e.:
Stream #0:0[0x12d]: Video: hevc (Main) (HEVC / 0×43564548), yuv420p(tv), 3840×2160, 150 tbr, 90k tbn, 90k tbc Stream #0:0: Video: hevc, yuv420p(tv), 3840×2160, 25 fps, 25 tbr, 1200k tbn, 25 tbc

Samples: http://www.elecard.com/en/download/videos.html

]]>
http://b.outlyer.net/task/247 http://b.outlyer.net/task/247
FS#248: Unsupported format gives errors Toni Corvera Tue, 19 Aug 2014 12:06:56 +0000 Seen in HEVC contained in MPEG-TS

]]>
http://b.outlyer.net/task/248 http://b.outlyer.net/task/248