BTS :: OutlyerNet :: BTS :: OutlyerNet :: vcs: Recently closed tasks https://b.outlyer.net/ 2019-11-26T19:47:34Z FS#366: Release 1.13.4 2019-11-26T19:47:34Z 2019-02-27T00:47:12Z

This is a meta-item depending on bugs to be fixed in the 1.13.4 release.

1.13.4 is a minor bugfix release for bugs found while development for 1.14 and 2.0 is stalled.

Previous:  FS#152   FS#218   FS#224   FS#250 
Next: FS#153

Toni Corvera https://b.outlyer.net/:366
FS#364: Evasion offsets aren't walked over in array 2019-11-26T19:45:25Z 2019-01-04T14:52:37Z

Submitted by Davide Cavestro

The array EVASION_ALTERNATIVES isn’t looped over correctly. Correction:

-		for delta in $EVASION_ALTERNATIVES ; do
+		for delta in ${EVASION_ALTERNATIVES[*]} ; do
Toni Corvera https://b.outlyer.net/:364
FS#365: File sizes are rounded 2019-11-26T19:45:16Z 2019-02-27T00:30:26Z

Reported by remlap

File sizes are displayed as 3.00GiB instead of 3.54GiB

Toni Corvera https://b.outlyer.net/:365
FS#373: Number of columns is ignored 2019-11-26T19:45:05Z 2019-11-25T11:19:38Z

First reported on BSD and Debian 10 (reproducible), apparently tied to some updated tool

Toni Corvera https://b.outlyer.net/:373
FS#250: Release 1.13.3 2017-05-27T00:34:48Z 2014-08-19T22:19:56Z

No need for description

Toni Corvera https://b.outlyer.net/:250
FS#314: Patch for approximate size calculation 2017-05-23T23:32:17Z 2016-04-28T18:29:25Z

Submitted by someone desiring no credit.

Here’s a patch against 1.13.2 for mistaken approximate size calculation.

Self-notes about the patch:

  • More accurate rounding → Discarded. I went for rounding by excess
  • Leading 0 in fractionary units was not present in the original → BUG
    Sample: Samsung HD sample, 1080pto720p version
Toni Corvera https://b.outlyer.net/:314
FS#323: Codec information is misaligned/cropped 2017-05-23T19:01:46Z 2017-05-16T19:07:47Z

Originally reported by Markus and Wade

The codec information box gets cropped with current versions of ImageMagick.

Toni Corvera https://b.outlyer.net/:323
FS#311: Allow disabling coloured output altogether 2017-05-23T17:46:20Z 2016-03-28T11:00:06Z

Reported by DanC

https://outlyer.net/2014-05-18:vcs-1_13_2-released/comment-page-1/#comment-20390:

A great utilty... I’ve been using this for a couple of years now (it runs every night as a cron job).
I’ve been looking at cleaning up the output that cron captures from each of its commands and stores as a system email.
I’ve enabled the -Wc option to prevent coloured output. Mostly this works except near the start of the script when it says:
Settings from /home/danc/.vcs/vcs.conf:
bg_heading
This is still shown in green. Bug?

Currently the colour only stops after the option is found.

Toni Corvera https://b.outlyer.net/:311
FS#247: Add codec identification for H.265/HEVC 2017-05-23T17:20:02Z 2014-08-19T12:05:34Z

ffmpeg: hevc

i.e.:
Stream #0:0[0x12d]: Video: hevc (Main) (HEVC / 0×43564548), yuv420p(tv), 3840×2160, 150 tbr, 90k tbn, 90k tbc Stream #0:0: Video: hevc, yuv420p(tv), 3840×2160, 25 fps, 25 tbr, 1200k tbn, 25 tbc

Samples: http://www.elecard.com/en/download/videos.html

Toni Corvera https://b.outlyer.net/:247
FS#248: Unsupported format gives errors 2017-05-23T17:18:45Z 2014-08-19T12:06:56Z

Seen in HEVC contained in MPEG-TS

Toni Corvera https://b.outlyer.net/:248